#TITLE:Give Me Up;
#SUBTITLE:;
#ARTIST:Nami Tamaki;
#TITLETRANSLIT:Give Me Up;
#SUBTITLETRANSLIT:;
#ARTISTTRANSLIT:Nami Tamaki;
#CREDIT:Thu Tu , 6-5-2009;
#BANNER:Give Me Up-bn.png;
#BACKGROUND:Give Me Up-bg.png;
#LYRICSPATH:;
#CDTITLE:pm4cd.png;
#MUSIC:Give Me Up.mp3;
#OFFSET:0.680;
#SAMPLESTART:64.400;
#SAMPLELENGTH:20.000;
#SELECTABLE:YES;
#BPMS:0.000=139.010;
#STOPS:;
#BGCHANGES:;
// cache tags:
#FIRSTBEAT:4.000;
#LASTBEAT:568.000;
#SONGFILENAME:Songs/Music V.I.P ^_^/Give Me Up/Give Me Up.sm;
#HASMUSIC:1;
#HASBANNER:1;
#MUSICLENGTH:248.223;
// end cache tags

//---------------dance-single - ----------------
#NOTES:
     dance-single:
     :
     Hard:
     17:
     1.000,1.000,1.000,1.000,0.757,1423.000,416.000,416.000,0.000,208.000:
0000
0000
0000
0000
,
0021
0000
0100
0001
1000
0000
0100
0001
0100
1000
0100
0001
0100
0000
1000
0001
,
2130
0000
0001
0010
0100
0000
3102
0010
1000
0100
0010
1000
0100
0000
1000
0010
,
1203
0000
0001
0010
1000
0000
0001
1000
0010
0001
1000
0010
0001
0000
1000
0010
,
1302
0000
0010
0100
1000
0000
2103
0010
0001
0010
0100
0010
0001
0000
0010
0001
,
3210
0000
0001
0010
1000
0000
0001
1000
0010
0001
1000
0001
0010
0000
1000
0001
,
1320
0000
0100
0001
1000
0000
1032
0100
1000
0100
0010
0100
0010
0000
1000
0010
,
1203
0000
1000
0010
0001
0000
1000
0010
0001
0010
1000
0010
1000
0000
0001
1000
,
0311
0000
0000
0000
0000
0000
0011
0000
0000
0000
0000
0000
0011
0000
0000
0000
0000
0000
0011
0000
0000
0000
0000
0000
0011
0000
0000
0011
0000
0000
0011
0000
0000
0011
0000
0000
0011
0000
0011
0000
0011
0000
0011
0000
0011
0000
0011
0000
,
1111
0000
0000
0010
2100
0000
0002
0000
3000
0000
2003
0000
3201
0000
0320
0000
,
1031
0000
0000
0100
0012
0000
2000
0000
0003
0000
3020
0000
0231
0000
2300
0000
,
3011
0000
0000
0001
1020
0000
0200
0000
0030
0000
2300
0000
3210
0000
0320
0000
,
0131
0000
0000
0010
2100
0000
0020
0000
3001
0100
1030
0100
1000
0100
0010
0001
,
0201
1000
0310
0001
0100
0002
0010
0203
,
2300
3200
2300
3100
0010
0002
0203
0302
,
0203
0310
1000
0100
0010
0002
1000
0023
,
0230
0320
0230
0301
0100
2000
3002
2003
,
3002
0013
0100
1000
0100
0020
0001
0230
,
2300
3200
2300
3100
0010
0002
0203
0302
,
0203
0310
1000
0100
0010
0002
1000
0203
,
0320
0230
0320
0130
1000
0002
0023
0032
,
0023
1030
0100
0010
0001
2000
0100
3020
,
0032
0023
0032
0103
1000
0020
0230
0320
,
0230
0301
0010
1000
0100
0200
0010
0302
,
2003
3002
2003
3100
0010
2000
3200
2300
,
3200
0310
0001
0100
1000
0020
0100
0032
,
0203
0302
0203
1300
0001
0020
2030
3020
,
2030
3100
0001
0010
0100
0020
0100
0032
,
0023
0032
0023
1030
0100
0020
0230
0320
,
1131
0000
0010
1000
0101
0000
0100
0010
0100
1000
0100
0010
1001
0000
0010
0000
,
0111
0000
1000
0100
1010
0000
0100
1000
0100
0010
0100
1000
0011
0000
0100
1000
,
0111
0000
0001
0010
1100
0000
0001
0010
0100
1000
0100
0010
0101
0000
0100
0000
,
1110
0000
0010
0100
1001
0000
0010
0001
0010
0100
0010
0100
1010
0000
0100
0000
,
1011
0000
0100
0010
1001
0000
1000
0010
0100
0001
0010
0100
0011
0000
0100
0000
,
0111
0000
1000
0010
1100
0000
0010
0100
0001
1000
0010
0001
0110
0000
1000
0000
,
1110
0000
0001
0100
1001
0000
0010
1000
0100
0001
0010
1000
0101
0000
0100
0000
,
1012
0100
0123
1000
1230
0010
1001
0010
,
1311
0000
0000
0100
0000
0000
0001
0000
0000
0010
0000
0000
1000
0000
0000
0001
0000
0000
1000
0000
0000
0100
0000
0000
0001
0000
0000
0010
0000
0000
0100
0000
0000
1000
0000
0000
0100
0000
0010
0000
0100
0000
0010
0000
0001
0000
0010
0000
,
1211
0000
0000
0010
2301
0000
0020
0000
3000
0000
0230
0000
1320
0000
0032
0000
,
1103
0110
0011
0110
1100
1000
0101
1010
,
0021
0000
0000
1000
0132
0000
2000
0000
0003
0000
3020
0000
1230
0000
0302
0000
,
0113
0000
1100
0000
0101
0000
1010
0000
0101
0010
1000
0010
1000
0010
1000
0010
,
1121
0000
0000
0001
1230
0000
2000
0000
0300
0000
3002
0000
0123
0000
0230
0000
,
1301
0110
1100
0110
1001
0010
1100
0110
,
0012
0000
0000
0100
2013
0000
0200
0000
3000
0000
0320
0000
2130
0000
3002
0000
,
0113
0000
1001
0000
1010
0000
0101
0000
1010
0100
1000
0100
1000
0100
1000
0100
,
1121
0000
0000
0100
2031
0000
0002
0000
3000
0000
0023
0000
0231
0000
2300
0000
,
3101
1010
1100
0011
1100
0100
0011
0110
,
2100
0000
0000
0001
3210
0000
0020
0000
0300
0000
2030
0000
3012
0000
0203
0000
,
1301
0000
1010
0000
1100
0000
0110
0000
0101
0010
0001
0010
0001
0010
0001
0010
,
1121
0000
0000
1000
0231
0000
0002
0000
0300
0000
2003
0000
3120
0000
0230
0000
,
1301
0110
1100
0011
0101
0010
1100
1010
,
2001
0000
0000
0001
3210
0000
0002
0000
0300
0000
2003
0000
3201
0000
0320
0000
,
1031
0000
1100
0000
0110
0000
0101
0000
1010
0001
1000
0001
1000
0001
1000
0001
,
1111
0000
0000
0100
0021
0000
0002
0000
0030
0000
0203
0000
2301
0000
3020
0000
,
0131
0000
0000
1000
0102
0000
0020
0000
0003
0000
2030
0000
3120
0000
0230
0000
,
1310
0000
0000
0100
1020
0000
0002
0000
0030
0000
0203
0000
2301
0000
3020
0000
,
1130
0000
0000
0001
0210
0000
0020
0000
1300
0001
1030
0001
0100
0001
1000
0010
,
0210
0001
0310
1000
0100
2000
0001
3020
,
0230
0320
0230
1300
0100
0020
0032
0023
,
0032
0103
1000
0100
0010
0002
0100
2003
,
3020
2030
3020
0130
0001
0020
0032
0023
,
0032
0103
0010
0001
1000
0002
0010
2003
,
3200
2300
3200
0301
0010
0200
0320
0230
,
0320
0031
0010
0100
1000
0200
0010
0302
,
0023
0032
0023
1030
0001
0200
0302
0203
,
0302
0103
1000
0010
0100
0020
0100
2030
,
3002
2003
3002
0013
0100
0002
0023
0032
,
0023
0130
0010
1000
0100
0002
0100
0023
,
2030
3020
2030
3001
0010
2000
3200
2300
,
3200
0301
0010
0100
1000
0200
0010
0302
,
2003
3002
2003
3100
0001
0020
0230
0320
,
0230
1300
0010
0001
1000
0002
1000
0203
,
0320
0230
0320
1030
0100
0002
2003
3002
,
1113
0000
0100
0001
1010
0000
0010
0100
0010
1000
0010
0001
0110
0000
0100
0000
,
1110
0000
0001
0010
0101
0000
0010
1000
0010
0100
0001
0100
0101
0000
0010
1000
,
0111
0000
1000
0100
0011
0000
1000
0010
0001
1000
0010
0100
1010
0000
0010
0000
,
0111
0000
0100
0010
1001
0000
0100
1000
0010
0100
0001
1000
0101
0000
0001
0000
,
1110
0000
0001
0100
1001
0000
0001
0100
0010
1000
0100
0010
0110
0000
0010
0000
,
1011
0000
0100
0010
1100
0000
0001
0010
1000
0001
0100
1000
1001
0000
0010
0000
,
1011
0000
1000
0100
1010
0000
0100
0001
0010
1000
0010
0100
0011
0000
0010
0000
,
2110
0100
3201
0001
0321
0100
1001
0100
,
1131
0000
0000
0010
0000
0000
1000
0000
0000
0100
0000
0000
0001
0000
0000
1000
0000
0000
0010
0000
0000
0100
0000
0000
1000
0000
0000
0100
0000
0000
0010
0000
0000
0001
0000
0000
0010
0000
0100
0000
0010
0000
0100
0000
1000
0000
0100
0000
,
1121
0000
0000
0100
1032
0000
0200
0000
0003
0000
0320
0000
1230
0000
2300
0000
,
3011
0110
1100
0110
0011
0100
1010
0101
,
1200
0000
0000
1000
0312
0000
0020
0000
0003
0000
2030
0000
3210
0000
0302
0000
,
1103
0000
0110
0000
1010
0000
0101
0000
1010
0001
0100
0001
0100
0001
0100
0001
,
1112
0000
0000
0100
1023
0000
0200
0000
0030
0000
2300
0000
3201
0000
0320
0000
,
1031
0101
0011
0110
1100
0100
0011
1001
,
2100
0000
0000
0010
3102
0000
0200
0000
0003
0000
2300
0000
3102
0000
0023
0000
,
1130
0000
0110
0000
0101
0000
1010
0000
0101
0010
1000
0010
1000
0010
1000
0010
,
1121
0000
0000
0001
2130
0000
0002
0000
3000
0000
0203
0000
0321
0000
2030
0000
,
3011
1010
0101
0110
1100
0010
0101
1010
,
2100
0000
0000
0010
3102
0000
0200
0000
0003
0000
0320
0000
2031
0000
3200
0000
,
1301
0000
0110
0000
0011
0000
1001
0000
1010
0100
0001
0100
0001
0100
0001
0100
,
2111
0000
0000
0010
3102
0000
0200
0000
0003
0000
0302
0000
0123
0000
0230
0000
,
1310
0101
0110
1001
0110
0001
1100
1010
,
1002
0000
0000
1000
0123
0000
2000
0000
0030
0000
3020
0000
1230
0000
2300
0000
,
3101
0000
0110
0000
1010
0000
1100
0000
1010
0101
1010
0101
1010
0101
1010
0101
,
2010
0100
0010
0001
0010
0001
0010
0100
0010
0100
0010
0001
0010
0001
0010
0100
,
3021
0100
1000
0100
0001
0100
0001
0100
1000
0100
1000
0100
0001
0100
0001
0100
,
2031
0010
0001
0010
0100
0010
0001
0010
0100
0010
0001
0010
0001
0010
0100
0010
,
3102
0010
0100
1000
0100
1000
0100
0010
0100
0010
0100
1000
0100
0010
0100
1000
,
1203
0010
1000
0010
1001
0010
0001
0010
1001
0010
1000
0010
1001
0010
0001
0010
,
2301
0010
0100
0010
0101
0010
0001
0010
0101
0010
0100
0010
0101
0010
0001
0010
,
3102
0010
1000
0010
1100
0010
0100
0010
1100
0010
1000
0010
1100
0010
0100
0010
,
1203
0001
1000
0001
1010
0001
0010
0001
1010
0001
1000
0001
1010
0001
0010
0001
,
1320
0001
0100
0001
1100
0001
1000
0001
1100
0001
0100
0001
1100
0001
1100
0001
,
1130
0000
0000
0010
0000
0000
1100
0000
0000
0010
0000
0000
1101
0000
0000
0010
0000
0000
1100
0000
0000
0010
0000
0000
1100
0000
0000
1100
0000
0000
1100
0000
0000
1100
0000
0000
1100
0000
1100
0000
1100
0000
1100
0000
1100
0000
1100
0000
,
1211
0001
1000
0010
2301
0100
0020
0001
3100
0001
0230
1000
0321
1000
0032
0010
,
1103
0110
0011
0110
1100
0010
0101
1010
,
0021
0100
0001
1000
0132
0010
2000
0100
0013
0001
3020
0001
1230
0010
0302
1000
,
0113
0000
1100
0000
0101
0000
1010
0000
0101
0010
1000
0010
1000
0010
1000
0010
,
1121
1000
0100
0001
1230
0001
2000
0010
0301
0010
3002
0100
1023
0001
0230
0010
,
1301
0110
1100
0110
1001
0010
1100
0110
,
0012
1000
0010
0100
2013
0001
0200
0010
3001
1000
0320
0100
2031
0100
3002
0100
,
0113
0000
1001
0000
1010
0000
0101
0000
1010
0100
1000
0100
1000
0100
1000
0100
,
1121
1000
0001
0100
2031
0100
0002
0010
3100
1000
0023
0001
1230
0001
2300
0010
,
3101
1010
1100
0011
1100
0100
0011
0110
,
2100
0010
0100
0001
3210
0001
0020
1000
0301
0100
2030
0100
3102
0010
0203
0000
,
1301
0000
1010
0000
1100
0000
0110
0000
0101
0010
0001
0010
0001
0010
0001
0010
,
1121
0001
0100
1000
0231
0010
0002
1000
0310
0100
2003
0100
3021
0001
0230
1000
,
1301
0110
1100
0011
0101
0010
1100
1010
,
2001
0100
0010
0001
3210
1000
0002
0010
1300
0100
2003
0010
3210
0001
0320
0100
,
1031
0000
1100
0000
0110
0000
0101
0000
1010
0001
1000
0001
1000
0001
1000
0001
,
1111
0000
0000
0100
0021
0000
0002
0000
0030
0000
0203
0000
2301
0000
3020
0000
,
1131
0000
0000
1000
0102
0000
0020
0000
0003
0000
2030
0000
3120
0000
0230
0000
,
1311
0000
0000
0100
1020
0000
0002
0000
0030
0000
0203
0000
2310
0000
3020
0000
,
1131
0000
0000
0001
0210
0000
0020
0000
1300
0001
1030
0001
0100
0001
1000
0010
,
1111
0000
0000
0010
2100
0000
0002
0000
3000
0000
2003
0000
3201
0000
0320
0000
,
1131
0000
0000
0100
0012
0000
2000
0000
0003
0000
3020
0000
0231
0000
2300
0000
,
3111
0000
0000
0001
1020
0000
0200
0000
0030
0000
2300
0000
3210
0000
0320
0000
,
1131
0000
0000
0010
2100
0000
0020
0000
3001
0100
1030
0100
1000
0100
0010
0001
,
1211
0000
0000
0001
2310
0000
0002
0000
3000
0000
0023
0000
2130
0000
3002
0000
,
1113
0000
0000
1000
0120
0000
2000
0000
0030
0000
3200
0000
0321
0000
0032
0000
,
1113
0000
0000
0010
2001
0000
0020
0000
3000
0000
0230
0000
2310
0000
3002
0000
,
1113
0000
0000
0010
0102
0000
0020
0000
0103
1000
0130
0010
0001
0010
0100
1000
,
1111
0000
0000
0010
2001
0000
0020
0000
3000
0000
2030
0000
3200
0000
0320
0000
,
1131
0000
0000
0010
0201
0000
0002
0000
0300
0000
0023
0000
0230
0000
2300
0000
,
3111
0000
0000
0001
1020
0000
0200
0000
0030
0000
2300
0000
3201
0000
0321
0000
,
1131
0000
0000
0000
0000
0000
1001
0000
0000
0000
0000
0000
1111
0000
0000
0000
0000
0000
1001
0000
0000
0000
0000
0000
1001
0000
0000
1001
0000
0000
1001
0000
0000
1001
0000
0000
1001
0000
1001
0000
1001
0000
1001
0000
0000
2002
0000
0000
,
0000
0000
0000
0000
,
3003
0000
0000
0000
;
